Episode 025 vostfr | Clarisse Abujamra | Que Fue De Brad - 2017

Flight of Fury 2007 DVD Dual Audio English Hindi GOPISAHI

Format                         : Matroska
Format version                 : Version 4 / Version 2
File size                      : 465 MiB
Duration                       : 1 h 38 min
Overall bit rate               : 660 kb/s
Movie name                     : Flight of Fury 2007

Download Here                   Watch Now

Video
Format                         : AVC
Codec ID                       : V_MPEG4/ISO/AVC
Duration                       : 1 h 38 min
Bit rate                       : 500 kb/s
Width                          : 820 pixels
Height                         : 440 pixels
Display aspect ratio           : 1.85:1
Frame rate mode                : Constant
Frame rate                     : 23.976 (24000/1001) FPS
Stream size                    : 352 MiB (76%)
Writing library                : x264 core 152 r2851 ba24899

Audio #1
Format                         : AAC
Duration                       : 1 h 38 min
Bit rate                       : 72.0 kb/s
Channel(s)                     : 6 channels
Channel positions              : Front: L C R, Side: L R, LFE
Sampling rate                  : 44.1 kHz
Frame rate                     : 43.066 FPS (1024 SPF)
Stream size                    : 50.4 MiB (11%)
Language                       : Hindi

Audio #2
Format                         : AAC
Duration                       : 1 h 38 min
Bit rate                       : 86.0 kb/s
Channel(s)                     : 6 channels
Channel positions              : Front: L C R, Side: L R, LFE
Sampling rate                  : 44.1 kHz
Frame rate                     : 43.066 FPS (1024 SPF)
Stream size                    : 60.4 MiB (13%)
Language                       : English

http://1.bp.blogspot.com/-G476ykQ5VTQ/WlHC_kGxERI/AAAAAAAAREo/4qGch8dtBl0kB-6wXHWq9txi5IxJIKeoACLcBGAs/s1600/Flight%2Bof%2BFury%2B2007%2BEsub%2B%2BDVD%2BDual%2BAudio%2BEnglish%2BHindi%2BGOPISAHI.mkv_thumbs.jpg

http://3.bp.blogspot.com/-YrwmCvGJbXs/WlHC-kZNKNI/AAAAAAAAREk/6GG6eWoziK0D7QV47qUs3rhTJI-36uoBwCLcBGAs/s1600/Flight%2Bof%2BFury%2B2007%2BEsub%2B%2BDVD%2BDual%2BAudio%2BEnglish%2BHindi%2BGOPISAHI.mkv_snapshot_01.02.33.jpg

drive

More GD Links

Loading...