Barry Seal: Kaçakçı Full Hd izle
Matthew Ziff

Empire Of The Wolves 2005 DVD Hindi GOPISAHI

Format                         : Matroska

Download Here                   Watch Now

Format version                 : Version 4 / Version 2

File size                      : 293 MiB

Duration                       : 1 h 45 min

Overall bit rate               : 388 kb/s

Movie name                     : Empire Of The Wolves 2005

Video

Format                         : AVC

Codec ID                       : V_MPEG4/ISO/AVC

Duration                       : 1 h 45 min

Bit rate                       : 300 kb/s

Width                          : 1 178 pixels

Height                         : 530 pixels

Display aspect ratio           : 2.223

Original display aspect ratio  : 2.222

Frame rate mode                : Constant

Frame rate                     : 23.976 (24000/1001) FPS

Stream size                    : 227 MiB (77{c3004b8f5e0f37c8553e313d82107df75406ab532a995ee1e957eb0f6eb30398})

Writing library                : x264

Audio

Format                         : AAC

Duration                       : 1 h 42 min

Bit rate                       : 88.6 kb/s

Channel(s)                     : 6 channels

Channel positions              : Front: L C R, Side: L R, LFE

Sampling rate                  : 44.1 kHz

Frame rate                     : 43.066 FPS (1024 SPF)

Stream size                    : 64.9 MiB (22{c3004b8f5e0f37c8553e313d82107df75406ab532a995ee1e957eb0f6eb30398})

Language                       : Hindi

http://3.bp.blogspot.com/-uZ2e2XD6fzc/WlAriFopZ7I/AAAAAAAARAk/rJ_sNSE7Ywc3Mi7gsaX5apcMyTgDnT2lACLcBGAs/s1600/Empire{c3004b8f5e0f37c8553e313d82107df75406ab532a995ee1e957eb0f6eb30398}2BOf{c3004b8f5e0f37c8553e313d82107df75406ab532a995ee1e957eb0f6eb30398}2BThe{c3004b8f5e0f37c8553e313d82107df75406ab532a995ee1e957eb0f6eb30398}2BWolves{c3004b8f5e0f37c8553e313d82107df75406ab532a995ee1e957eb0f6eb30398}2B2005{c3004b8f5e0f37c8553e313d82107df75406ab532a995ee1e957eb0f6eb30398}2BDVD{c3004b8f5e0f37c8553e313d82107df75406ab532a995ee1e957eb0f6eb30398}2BHindi{c3004b8f5e0f37c8553e313d82107df75406ab532a995ee1e957eb0f6eb30398}2BGOPISAHI.mkv_thumbs.jpg

DRIVE

More DD Link

Recent search terms:

Loading...